Berry Beachy Fashion Show - Miami Swim Week 2022 - Art Hearts Fashion - Full Show 4K 收藏

[视频名称] : Berry Beachy Fashion Show - Miami Swim Week 2022 - Art Hearts Fashion - Full Show 4K.webm
[出境模特] : Miami Swim Week
[视频尺寸] : 3840x2160
[视频大小] : 1webm/2.42G
[视频时长] : 00:13:09
[视频编码] :
Stream #0:0(eng): Video: vp9 (Profile 0), yuv420p(tv, bt709), 3840x2160, SAR 1:1 DAR 16:9, 59.94 fps, 59.94 tbr, 1k tbn, 1k tbc (default)
Stream #0:1(eng): Audio: opus, 48000 Hz, stereo, fltp (default)
[下载方式] : 百度网盘
[下载地址] : 点此获取下载地址 (售价:10积分)
下载包内为原版高清视频,绝不含第三方水印!
[在线观看] : 第1段
[视频预览] : Berry Beachy Fashion Show - Miami Swim Week 2022 - Art Hearts Fashion - Full Show 4K

有用 (5670)

评论加载中...